<?xml version="1.0" standalone="no"?>
<!DOCTYPE svg PUBLIC "-//W3C//DTD SVG 1.1//EN" "http://www.w3.org/Graphics/SVG/1.1/DTD/svg11.dtd" >
<svg xmlns="http://www.w3.org/2000/svg" xmlns:xlink="http://www.w3.org/1999/xlink" version="1.1">
<metadata></metadata>
<defs>
<font id="sf_pro_textbold" horiz-adv-x="1415" >
<font-face units-per-em="2048" ascent="1638" descent="-410" />
<missing-glyph horiz-adv-x="528" />
<glyph horiz-adv-x="0" />
<glyph unicode="&#xd;" horiz-adv-x="0" />
<glyph unicode=" "  horiz-adv-x="528" />
<glyph unicode="&#x09;" horiz-adv-x="528" />
<glyph unicode="&#xa0;" horiz-adv-x="528" />
<glyph unicode="!" horiz-adv-x="730" d="M183 140q0 79 49 125t133 46q85 0 133.5 -45.5t48.5 -125.5q0 -79 -48.5 -124.5t-133.5 -45.5q-84 0 -133 45.5t-49 124.5zM205 1443h320l-27 -968h-267z" />
<glyph unicode="&#x22;" horiz-adv-x="1016" d="M152 831v612h250v-612h-250zM614 831v612h250v-612h-250z" />
<glyph unicode="#" horiz-adv-x="1360" d="M32 378l41 222h227l54 262h-231l42 220h231l74 362h221l-72 -362h258l74 362h222l-73 -362h236l-41 -220h-239l-54 -262h241l-41 -222h-243l-76 -378h-222l77 378h-260l-76 -378h-221l76 378h-225zM503 580h287l63 301h-288z" />
<glyph unicode="$" d="M141 410h286q5 -74 64.5 -125t152.5 -61v372l-105 25q-181 42 -275 144.5t-94 258.5q0 184 125 297t349 131v136h140v-136q209 -20 334 -133.5t128 -286.5h-279q-2 68 -53 119t-130 62v-356l107 -22q383 -82 383 -404q0 -191 -127.5 -305t-362.5 -134v-127h-140v125 q-235 13 -368.5 125t-134.5 295zM460 1052q0 -63 47 -105.5t137 -60.5v328q-81 -4 -132.5 -49.5t-51.5 -112.5zM784 223q97 6 151.5 52t54.5 122q0 136 -206 174v-348z" />
<glyph unicode="%" horiz-adv-x="1701" d="M65 1111q0 164 93.5 264.5t244.5 100.5q152 0 245 -100.5t93 -264.5q0 -165 -93 -266t-245 -101q-151 0 -244.5 101t-93.5 266zM224 0l545 756l434 687h281l-554 -762l-424 -681h-282zM288 1111q0 -81 31 -128t84 -47t84 47t31 128q0 82 -30.5 128.5t-84.5 46.5 q-53 0 -84 -47t-31 -128zM961 333q0 164 93 265t244 101q152 0 245 -100.5t93 -265.5q0 -164 -93 -265t-245 -101q-151 0 -244 101t-93 265zM1183 334q0 -81 31 -128t84 -47t84 47t31 128q0 82 -30.5 128t-84.5 46q-53 0 -84 -46.5t-31 -127.5z" />
<glyph unicode="&#x26;" horiz-adv-x="1525" d="M107 377q0 124 64.5 216t204.5 169q3 1 32.5 17.5t31.5 17.5q-98 101 -138.5 176t-40.5 155q0 146 116.5 241.5t294.5 95.5q177 0 290 -92.5t113 -238.5q0 -112 -71.5 -204t-222.5 -174l277 -287q51 90 51 263v71h245v-90q0 -265 -123 -431l268 -282h-327l-111 117 q-80 -68 -198.5 -106.5t-250.5 -38.5q-230 0 -367.5 110t-137.5 295zM380 402q0 -94 72.5 -152.5t189.5 -58.5q79 0 151 26.5t115 71.5l-331 349q-16 -6 -42 -20q-155 -84 -155 -216zM512 1112q0 -49 29.5 -96.5t104.5 -118.5q99 49 142.5 100t43.5 115q0 68 -44 110.5 t-115 42.5t-116 -43t-45 -110z" />
<glyph unicode="'" horiz-adv-x="553" d="M152 831v612h250v-612h-250z" />
<glyph unicode="(" horiz-adv-x="878" d="M223 607q0 560 297 917h268q-112 -142 -188 -400.5t-76 -515.5t76 -515.5t188 -402.5h-268q-297 360 -297 917z" />
<glyph unicode=")" horiz-adv-x="878" d="M90 -310q113 143 188.5 401.5t75.5 516.5q0 257 -76 515.5t-188 400.5h269q296 -357 296 -917q0 -559 -296 -917h-269z" />
<glyph unicode="*" horiz-adv-x="1032" d="M124 961l272 109l-272 108l100 180l232 -185l-40 293h201l-41 -293l232 185l100 -180l-271 -108l271 -109l-100 -178l-230 179l39 -288h-201l39 288l-231 -179z" />
<glyph unicode="+" d="M168 455v258h412v408h255v-408h413v-258h-413v-409h-255v409h-412z" />
<glyph unicode="," horiz-adv-x="712" d="M141 -391l92 625h285l-182 -625h-195z" />
<glyph unicode="-" horiz-adv-x="992" d="M168 446v273h657v-273h-657z" />
<glyph unicode="." horiz-adv-x="712" d="M179 147q0 76 48.5 124.5t128.5 48.5t128.5 -48t48.5 -125t-48.5 -125.5t-128.5 -48.5t-128.5 48.5t-48.5 125.5z" />
<glyph unicode="/" horiz-adv-x="793" d="M0 -310l522 1834h271l-522 -1834h-271z" />
<glyph unicode="0" horiz-adv-x="1402" d="M128 724q0 357 152.5 556.5t420.5 199.5q267 0 420 -200t153 -557t-152.5 -558.5t-420.5 -201.5t-420.5 201.5t-152.5 559.5zM434 724q0 -249 70.5 -382t196.5 -133t196.5 132.5t70.5 382.5q0 248 -70.5 378.5t-196.5 130.5q-125 0 -196 -131t-71 -378z" />
<glyph unicode="1" horiz-adv-x="1051" d="M123 905v281l373 257h301v-1443h-302v1149h-18z" />
<glyph unicode="2" horiz-adv-x="1318" d="M129 1006v5q0 209 146 339t380 130q226 0 368.5 -117.5t142.5 -303.5q0 -118 -74 -234.5t-261 -292.5l-276 -263v-18h632v-251h-1041v211l471 461q152 148 203 222t51 145q0 87 -63.5 142.5t-162.5 55.5q-105 0 -170.5 -62.5t-65.5 -162.5v-6h-280z" />
<glyph unicode="3" horiz-adv-x="1370" d="M126 413h289q7 -92 79 -145.5t188 -53.5q113 0 184.5 58t71.5 150q0 95 -70 149.5t-191 54.5h-179v225h176q103 0 166.5 55t63.5 143q0 87 -62.5 138.5t-168.5 51.5q-105 0 -170 -55t-71 -149h-279q8 205 150 325t378 120q222 0 365.5 -109.5t143.5 -279.5 q0 -125 -72.5 -215t-193.5 -115v-18q149 -17 235.5 -109.5t86.5 -234.5q0 -125 -72.5 -224.5t-202.5 -155.5t-292 -56q-241 0 -392 123t-161 327z" />
<glyph unicode="4" horiz-adv-x="1410" d="M114 252v267q169 319 571 924h423v-940h189v-251h-189v-252h-288v252h-706zM385 494h442v714h-16q-231 -345 -426 -698v-16z" />
<glyph unicode="5" horiz-adv-x="1359" d="M154 410h279q13 -90 85 -145t175 -55q117 0 189.5 72t72.5 189q0 119 -73 192t-188 73q-167 0 -247 -130h-270l72 837h907v-251h-673l-32 -371h18q98 141 306 141q205 0 336.5 -136t131.5 -348q0 -230 -152 -372.5t-400 -142.5q-233 0 -381.5 125.5t-155.5 321.5z" />
<glyph unicode="6" horiz-adv-x="1401" d="M125 711q0 359 160 564t442 205q206 0 351.5 -111t176.5 -292h-299q-21 71 -83.5 113t-147.5 42q-148 0 -232.5 -132.5t-79.5 -357.5h18q49 102 145.5 157.5t222.5 55.5q205 0 340 -136t135 -343q0 -225 -155 -369t-397 -144q-157 0 -279.5 67t-196.5 194 q-121 186 -121 487zM458 470q0 -110 75 -184.5t186 -74.5t186.5 73.5t75.5 182.5q0 110 -74 182.5t-187 72.5t-187.5 -72t-74.5 -180z" />
<glyph unicode="7" horiz-adv-x="1239" d="M97 1195v249h1032v-252l-603 -1192h-316l615 1177v18h-728z" />
<glyph unicode="8" horiz-adv-x="1421" d="M128 385q0 136 86.5 236.5t231.5 132.5v18q-118 27 -189 113t-71 201q0 173 147.5 283.5t377.5 110.5q229 0 376.5 -110.5t147.5 -283.5q0 -115 -70.5 -200.5t-189.5 -113.5v-18q144 -27 231.5 -127.5t87.5 -238.5q0 -190 -162 -307.5t-422 -117.5t-421 117t-161 305z M442 413q0 -98 74.5 -160t193.5 -62t194 62t75 160q0 99 -75 161t-194 62t-193.5 -62t-74.5 -161zM484 1057q0 -87 63 -142.5t163 -55.5t163.5 55.5t63.5 142.5q0 88 -63.5 143.5t-163.5 55.5t-163 -55.5t-63 -143.5z" />
<glyph unicode="9" horiz-adv-x="1401" d="M127 967q0 225 155 369t397 144q156 0 278.5 -66.5t197.5 -193.5q121 -188 121 -487q0 -360 -160 -565t-442 -205q-205 0 -351 111.5t-177 291.5h299q21 -71 83.5 -113t147.5 -42q148 0 232.5 133t79.5 358h-9h-7h-2q-49 -102 -145.5 -157.5t-222.5 -55.5 q-206 0 -340.5 135.5t-134.5 342.5zM420 977q0 -111 74 -183t187 -72t187.5 71.5t74.5 180.5q0 110 -75 184.5t-186 74.5t-186.5 -74t-75.5 -182z" />
<glyph unicode=":" horiz-adv-x="712" d="M179 147q0 76 48.5 124.5t128.5 48.5t128.5 -48t48.5 -125t-48.5 -125.5t-128.5 -48.5t-128.5 48.5t-48.5 125.5zM179 885q0 76 48.5 124.5t128.5 48.5t128.5 -48t48.5 -125t-48.5 -125.5t-128.5 -48.5t-128.5 48.5t-48.5 125.5z" />
<glyph unicode=";" horiz-adv-x="712" d="M122 -391l96 625h286l-178 -625h-204zM179 885q0 76 48.5 124.5t128.5 48.5t128.5 -48t48.5 -125t-48.5 -125.5t-128.5 -48.5t-128.5 48.5t-48.5 125.5z" />
<glyph unicode="&#x3c;" d="M231 474v235l953 496v-301l-657 -303v-19l657 -303v-301z" />
<glyph unicode="=" d="M171 216v259h1073v-259h-1073zM171 695v259h1073v-259h-1073z" />
<glyph unicode="&#x3e;" d="M231 -22v301l657 303v19l-657 303v301l953 -496v-235z" />
<glyph unicode="?" horiz-adv-x="1141" d="M78 1035q4 191 132 306t354 115q214 0 344.5 -108t130.5 -282q0 -111 -53 -193t-161 -145q-100 -58 -135 -104t-35 -118v-53h-265l-2 55q-10 118 32.5 193.5t147.5 137.5q98 58 133 103.5t35 114.5q0 70 -52.5 114.5t-137.5 44.5q-86 0 -139 -49t-58 -132h-271zM351 140 q0 79 49 125t133 46t132.5 -46t48.5 -125t-48.5 -124.5t-132.5 -45.5t-133 45.5t-49 124.5z" />
<glyph unicode="@" horiz-adv-x="1899" d="M127 616q0 244 106.5 434t299 295t439.5 105q237 0 420.5 -93.5t285 -262.5t101.5 -387q0 -239 -106 -378t-287 -139q-94 0 -157.5 42t-80.5 114h-18q-64 -153 -240 -153q-156 0 -251 116t-95 306q0 182 93 295t243 113q80 0 142 -37t92 -104h18v119h202v-530 q0 -53 25 -82.5t71 -29.5q76 0 121 89.5t45 241.5q0 271 -172.5 434.5t-457.5 163.5q-290 0 -473 -189t-183 -488q0 -304 187.5 -483t506.5 -179q180 0 272 33v-163q-122 -36 -287 -36q-258 0 -453.5 103t-302 292t-106.5 438zM771 609q0 -107 44.5 -167.5t123.5 -60.5 q80 0 127 61t47 167t-46.5 167t-126.5 61q-79 0 -124 -60.5t-45 -167.5z" />
<glyph unicode="A" horiz-adv-x="1500" d="M72 0l501 1443h355l501 -1443h-327l-109 344h-507l-111 -344h-303zM551 577h378l-179 566h-18z" />
<glyph unicode="B" horiz-adv-x="1420" d="M175 0v1443h631q209 0 328 -96t119 -264q0 -115 -75 -203t-186 -105v-18q143 -11 236.5 -108t93.5 -236q0 -190 -134 -301.5t-365 -111.5h-648zM477 231h269q130 0 199 53.5t69 154.5q0 99 -70.5 150.5t-204.5 51.5h-262v-410zM477 845h227q122 0 187 48t65 135 t-59.5 135.5t-167.5 48.5h-252v-367z" />
<glyph unicode="C" horiz-adv-x="1518" d="M111 722q0 352 181.5 555t495.5 203q256 0 432.5 -152.5t193.5 -388.5h-294q-22 125 -112.5 200t-219.5 75q-170 0 -269 -132t-99 -360t99 -360.5t270 -132.5q130 0 220 71t112 190h294q-19 -234 -192.5 -380.5t-434.5 -146.5q-314 0 -495.5 203.5t-181.5 555.5z" />
<glyph unicode="D" horiz-adv-x="1530" d="M175 0v1444h568q322 0 499.5 -186.5t177.5 -525.5q0 -351 -176.5 -541.5t-500.5 -190.5h-568zM477 258h218q201 0 309 120.5t108 348.5q0 218 -110 338.5t-307 120.5h-218v-928z" />
<glyph unicode="E" horiz-adv-x="1274" d="M175 0v1443h956v-258h-654v-337h617v-239h-617v-351h654v-258h-956z" />
<glyph unicode="F" horiz-adv-x="1224" d="M175 0v1443h945v-258h-643v-376h587v-247h-587v-562h-302z" />
<glyph unicode="G" horiz-adv-x="1557" d="M111 723q0 349 185 553t500 204q256 0 429 -136t205 -361h-300q-34 110 -121 170.5t-213 60.5q-175 0 -275.5 -130.5t-100.5 -357.5q0 -231 104.5 -364t283.5 -133q148 0 242 80t99 211l1 26h-313v227h606v-184q0 -289 -172 -457.5t-468 -168.5q-322 0 -507 203t-185 557 z" />
<glyph unicode="H" horiz-adv-x="1604" d="M175 0v1443h302v-582h650v582h302v-1443h-302v603h-650v-603h-302z" />
<glyph unicode="I" horiz-adv-x="652" d="M175 0v1443h302v-1443h-302z" />
<glyph unicode="J" horiz-adv-x="1231" d="M76 424h292q2 -87 54.5 -139t139.5 -52q93 0 142.5 55.5t49.5 161.5v993h302v-995q0 -232 -129.5 -358.5t-360.5 -126.5q-223 0 -356.5 125t-133.5 336z" />
<glyph unicode="K" horiz-adv-x="1453" d="M175 0v1443h302v-643h18l533 643h336l-526 -633l563 -810h-362l-419 604l-143 -169v-435h-302z" />
<glyph unicode="L" horiz-adv-x="1218" d="M175 0v1443h302v-1180h642v-263h-944z" />
<glyph unicode="M" horiz-adv-x="1878" d="M175 0v1443h356l399 -970h18l400 970h355v-1443h-280v965h-16l-367 -882h-201l-368 882h-16v-965h-280z" />
<glyph unicode="N" horiz-adv-x="1573" d="M175 0v1443h252l664 -899h18v899h289v-1443h-250l-666 903h-18v-903h-289z" />
<glyph unicode="O" horiz-adv-x="1610" d="M111 722q0 350 188 554t507 204q320 0 506.5 -204t186.5 -554q0 -351 -186.5 -555t-506.5 -204q-321 0 -508 204t-187 555zM420 722q0 -226 104.5 -360t281.5 -134q176 0 280.5 134t104.5 360t-104.5 359.5t-280.5 133.5t-281 -133.5t-105 -359.5z" />
<glyph unicode="P" horiz-adv-x="1380" d="M175 0v1443h602q223 0 361.5 -137.5t138.5 -361.5q0 -222 -143 -359t-372 -137h-285v-448h-302zM477 693h219q131 0 202.5 64.5t71.5 185.5q0 122 -71 187t-202 65h-220v-502z" />
<glyph unicode="Q" horiz-adv-x="1610" d="M111 722q0 350 188 554t507 204t506 -204t187 -554q0 -194 -58.5 -345.5t-168.5 -245.5l179 -272h-292l-100 142q-116 -38 -253 -38q-321 0 -508 203.5t-187 555.5zM420 722q0 -228 105 -361t282 -133q49 0 104 13l-164 240h274l67 -81q103 111 103 322q0 226 -105 359.5 t-280 133.5q-176 0 -281 -133.5t-105 -359.5z" />
<glyph unicode="R" horiz-adv-x="1422" d="M175 0v1443h606q238 0 375 -124t137 -339q0 -140 -69.5 -250.5t-192.5 -159.5l304 -570h-342l-269 523h-247v-523h-302zM477 755h265q114 0 177.5 58.5t63.5 162.5q0 103 -66 163t-178 60h-262v-444z" />
<glyph unicode="S" horiz-adv-x="1383" d="M110 401h292q10 -88 92 -140t210 -52q118 0 193 51.5t75 133.5q0 69 -58 112t-191 71l-188 40q-392 82 -392 412q0 204 151 327.5t401 123.5q238 0 391.5 -121t160.5 -314h-284q-11 86 -84 138t-182 52q-114 0 -182.5 -49t-68.5 -131q0 -67 55.5 -108t182.5 -68l174 -37 q217 -46 316 -144t99 -266q0 -218 -156.5 -343.5t-428.5 -125.5q-258 0 -414 118t-164 320z" />
<glyph unicode="T" horiz-adv-x="1352" d="M92 1185v258h1168v-258h-433v-1185h-302v1185h-433z" />
<glyph unicode="U" horiz-adv-x="1564" d="M178 498v945h302v-914q0 -138 79.5 -218t222.5 -80q144 0 223.5 80t79.5 218v914h302v-945q0 -241 -164.5 -388t-440.5 -147q-275 0 -439.5 147t-164.5 388z" />
<glyph unicode="V" horiz-adv-x="1477" d="M72 1443h341l328 -1103h18l322 1103h325l-481 -1443h-365z" />
<glyph unicode="W" horiz-adv-x="2067" d="M88 1443h314l225 -1017h16l263 1017h255l268 -1017h16l223 1017h312l-383 -1443h-283l-273 955h-16l-270 -955h-285z" />
<glyph unicode="X" horiz-adv-x="1494" d="M88 0l461 727l-458 716h355l301 -505h18l304 505h338l-475 -721l468 -722h-344l-310 489h-18l-314 -489h-326z" />
<glyph unicode="Y" horiz-adv-x="1451" d="M72 1443h327l318 -604h18l317 604h327l-502 -912v-531h-302v531z" />
<glyph unicode="Z" horiz-adv-x="1384" d="M135 0v204l726 963v18h-709v258h1077v-203l-724 -964v-18h744v-258h-1114z" />
<glyph unicode="[" horiz-adv-x="878" d="M252 -310v1834h554v-223h-274v-1388h274v-223h-554z" />
<glyph unicode="\" horiz-adv-x="793" d="M0 1524h276l517 -1834h-276z" />
<glyph unicode="]" horiz-adv-x="878" d="M73 -87h273v1388h-273v223h554v-1834h-554v223z" />
<glyph unicode="^" horiz-adv-x="1066" d="M85 772l319 636h259l319 -636h-257l-183 410h-18l-182 -410h-257z" />
<glyph unicode="_" horiz-adv-x="945" d="M-2 -107h949v-227h-949v227z" />
<glyph unicode="`" horiz-adv-x="1098" d="M270 1634h309l247 -353h-269z" />
<glyph unicode="a" horiz-adv-x="1208" d="M87 315q0 149 110.5 234.5t316.5 97.5l267 16v90q0 69 -48 106.5t-138 37.5q-162 0 -199 -102h-268q14 153 144.5 242.5t338.5 89.5q218 0 337.5 -98t119.5 -276v-753h-282v144h-18q-43 -76 -128 -118.5t-192 -42.5q-160 0 -260.5 91t-100.5 241zM372 334 q0 -61 47.5 -96.5t124.5 -35.5q101 0 169 57t68 141v81l-223 -14q-186 -13 -186 -133z" />
<glyph unicode="b" horiz-adv-x="1334" d="M156 0v1524h291v-597h18q42 91 130 142.5t201 51.5q209 0 328 -151t119 -418q0 -265 -119.5 -417t-327.5 -152q-117 0 -206.5 50t-133.5 140h-18v-173h-282zM444 551q1 -150 68.5 -237.5t182.5 -87.5q116 0 182.5 87t66.5 239q0 151 -67 238t-182 87t-182.5 -87.5 t-68.5 -238.5z" />
<glyph unicode="c" horiz-adv-x="1203" d="M92 554q0 275 140 424t399 149q216 0 344.5 -111t146.5 -302h-272q-15 81 -71.5 127.5t-147.5 46.5q-118 0 -181.5 -86t-63.5 -248q0 -164 63.5 -251.5t181.5 -87.5q90 0 146.5 43t72.5 124h272q-18 -187 -148 -296.5t-343 -109.5q-258 0 -398.5 150.5t-140.5 427.5z" />
<glyph unicode="d" horiz-adv-x="1334" d="M92 553q0 263 120.5 415.5t328.5 152.5q112 0 199 -51.5t130 -142.5h17v597h291v-1524h-282v173h-18q-44 -89 -133 -139.5t-204 -50.5q-208 0 -328.5 153t-120.5 417zM391 552q0 -153 66 -239.5t183 -86.5t183.5 86.5t66.5 238.5q0 151 -67 238.5t-183 87.5t-182.5 -86.5 t-66.5 -238.5z" />
<glyph unicode="e" horiz-adv-x="1231" d="M92 546q0 269 142 425t388 156q244 0 380.5 -147t136.5 -410v-89h-757v-15q3 -123 70.5 -194.5t181.5 -71.5q86 0 144 29.5t81 84.5h271q-33 -157 -167.5 -247.5t-336.5 -90.5q-252 0 -393 150.5t-141 419.5zM383 667h470q-5 110 -66.5 173.5t-163.5 63.5 q-101 0 -166.5 -65t-73.5 -172z" />
<glyph unicode="f" horiz-adv-x="836" d="M53 863v229h178v112q0 167 90.5 248.5t287.5 81.5q84 0 150 -11v-206q-48 5 -87 5q-84 0 -120 -33.5t-36 -105.5v-91h234v-229h-228v-863h-291v863h-178z" />
<glyph unicode="g" horiz-adv-x="1322" d="M89 561q0 257 121.5 408.5t330.5 151.5q112 0 201.5 -52t133.5 -143h18v177h282v-1099q0 -194 -147 -308t-397 -114q-218 0 -354.5 88.5t-150.5 234.5h288q11 -51 70 -81t153 -30q117 0 182 51.5t65 144.5v204h-18q-94 -178 -332 -178q-206 0 -326 147.5t-120 397.5z M388 562q0 -147 65 -231.5t183 -84.5t185 84.5t67 230.5t-67.5 231t-184.5 85t-182.5 -84.5t-65.5 -230.5z" />
<glyph unicode="h" horiz-adv-x="1307" d="M156 0v1524h286v-602h18q39 95 125.5 148.5t207.5 53.5q179 0 278.5 -108t99.5 -306v-710h-291v641q0 114 -52 173t-151 59q-108 0 -169 -65.5t-61 -174.5v-633h-291z" />
<glyph unicode="i" horiz-adv-x="587" d="M122 1404q0 66 47 106.5t125 40.5t125 -40.5t47 -106.5q0 -65 -47.5 -106t-124.5 -41q-78 0 -125 41t-47 106zM148 0v1103h291v-1103h-291z" />
<glyph unicode="j" horiz-adv-x="587" d="M-29 -149q6 -1 37 -1q76 0 108 29t32 95v1129h291v-1137q0 -169 -99 -255.5t-291 -86.5q-54 0 -78 4v223zM122 1404q0 66 47 106.5t125 40.5t125 -40.5t47 -106.5q0 -65 -47.5 -106t-124.5 -41q-78 0 -125 41t-47 106z" />
<glyph unicode="k" horiz-adv-x="1232" d="M156 0v1524h291v-852h18l369 431h331l-420 -473l449 -630h-345l-322 448l-80 -82v-366h-291z" />
<glyph unicode="l" horiz-adv-x="603" d="M156 0v1524h291v-1524h-291z" />
<glyph unicode="m" horiz-adv-x="1899" d="M146 0v1103h282v-180h18q34 95 115.5 149.5t189.5 54.5q115 0 193.5 -53.5t111.5 -150.5h18q39 93 128 148.5t204 55.5q165 0 261 -100t96 -270v-757h-291v680q0 196 -184 196q-88 0 -141 -56t-53 -145v-675h-280v692q0 87 -48 135.5t-134 48.5q-85 0 -140 -60t-55 -152 v-664h-291z" />
<glyph unicode="n" horiz-adv-x="1285" d="M146 0v1103h282v-177h18q39 95 122.5 148t203.5 53q183 0 280 -107.5t97 -306.5v-713h-291v644q0 232 -203 232q-101 0 -159.5 -65.5t-58.5 -174.5v-636h-291z" />
<glyph unicode="o" horiz-adv-x="1269" d="M92 552q0 268 145.5 421.5t397.5 153.5t397.5 -153.5t145.5 -421.5q0 -270 -144.5 -423t-398.5 -153t-398.5 153t-144.5 423zM391 552q0 -161 63.5 -249.5t180.5 -88.5q116 0 180 88.5t64 249.5q0 159 -64.5 248t-179.5 89q-116 0 -180 -89t-64 -248z" />
<glyph unicode="p" horiz-adv-x="1324" d="M146 -366v1469h282v-181h18q45 93 134 146t203 53q210 0 330 -151t120 -418q0 -266 -119 -417.5t-326 -151.5q-118 0 -205 49t-128 137h-18v-535h-291zM434 551q0 -151 67 -238t183 -87q118 0 184 86.5t66 239.5q0 152 -66.5 238.5t-182.5 86.5t-183.5 -87.5 t-67.5 -238.5z" />
<glyph unicode="q" horiz-adv-x="1324" d="M92 553q0 263 121.5 415.5t329.5 152.5q111 0 200.5 -53.5t133.5 -145.5h18v181h283v-1469h-292v535h-18q-45 -89 -130 -137.5t-201 -48.5q-207 0 -326 152.5t-119 417.5zM391 552q0 -153 65.5 -239.5t181.5 -86.5q117 0 184.5 87t67.5 238t-67.5 238.5t-183.5 87.5 t-182 -86.5t-66 -238.5z" />
<glyph unicode="r" horiz-adv-x="891" d="M146 0v1103h282v-176h18q22 84 100.5 139t182.5 55q75 0 114 -14v-265q-46 18 -138 18q-121 0 -194.5 -67t-73.5 -182v-611h-291z" />
<glyph unicode="s" horiz-adv-x="1160" d="M94 307h284q35 -118 209 -118q85 0 138 32.5t53 85.5q0 41 -33 66.5t-106 41.5l-200 45q-161 35 -239.5 113.5t-78.5 205.5q0 157 126.5 252.5t332.5 95.5q210 0 329.5 -85t131.5 -243h-269q-11 54 -60.5 84.5t-129.5 30.5q-79 0 -130 -32.5t-51 -84.5q0 -40 36 -66.5 t113 -43.5l207 -45q161 -35 235.5 -107t74.5 -195q0 -164 -134 -264t-352 -100t-345 86t-142 245z" />
<glyph unicode="t" horiz-adv-x="845" d="M57 863v229h172v273h291v-273h229v-229h-229v-496q0 -72 34.5 -106t108.5 -34q49 0 86 4v-222q-67 -13 -146 -13q-201 0 -287.5 70t-86.5 232v565h-172z" />
<glyph unicode="u" horiz-adv-x="1290" d="M136 384v719h291v-644q0 -230 203 -230q107 0 165 63t58 175v636h291v-1103h-282v177h-18q-82 -201 -322 -201q-179 0 -282.5 108.5t-103.5 299.5z" />
<glyph unicode="v" horiz-adv-x="1194" d="M51 1103h313l228 -822h18l226 822h307l-381 -1103h-328z" />
<glyph unicode="w" horiz-adv-x="1735" d="M61 1103h295l164 -791h18l193 791h278l194 -791h18l164 791h289l-293 -1103h-310l-197 761h-18l-195 -761h-306z" />
<glyph unicode="x" horiz-adv-x="1190" d="M64 1103h334l195 -362h18l195 362h318l-346 -545l349 -558h-324l-205 360h-18l-205 -360h-309l346 545z" />
<glyph unicode="y" horiz-adv-x="1223" d="M56 1103h321l232 -836h18l232 836h308l-380 -1120q-70 -212 -183.5 -298t-320.5 -86q-93 0 -111 3v234q10 -2 66 -2q83 0 130 28.5t65 90.5l10 40z" />
<glyph unicode="z" horiz-adv-x="1160" d="M121 0v172l558 681v18h-550v232h898v-192l-526 -661v-18h539v-232h-919z" />
<glyph unicode="{" horiz-adv-x="878" d="M73 466v287q128 1 182 47t54 156v192q0 198 100 287t323 89h74v-220h-44q-95 0 -134.5 -43.5t-39.5 -147.5v-237q0 -108 -67 -172t-195 -78v-33q128 -14 195 -78t67 -173v-242q0 -104 39.5 -147.5t134.5 -43.5h44v-219h-74q-223 0 -323 90.5t-100 290.5v192 q0 109 -53.5 155t-182.5 48z" />
<glyph unicode="|" horiz-adv-x="793" d="M260 -310v1834h273v-1834h-273z" />
<glyph unicode="}" horiz-adv-x="878" d="M73 -91h44q95 0 134.5 43.5t39.5 147.5v242q0 109 67 173t195 78v33q-128 14 -195 78t-67 172v237q0 104 -39.5 147.5t-134.5 43.5h-44v220h74q223 0 322.5 -89t99.5 -287v-192q0 -110 54 -156t183 -47v-287q-129 -2 -183 -48t-54 -155v-192q0 -200 -100 -290.5 t-322 -90.5h-74v219z" />
<glyph unicode="~" horiz-adv-x="1225" d="M82 525q-2 432 321 432q68 0 127 -30t132 -101q44 -43 74.5 -61t60.5 -18q113 0 119 178h227q1 -219 -76.5 -325.5t-239.5 -106.5q-70 0 -130 29.5t-131 99.5q-47 46 -76.5 63.5t-60.5 17.5q-115 0 -119 -178h-228z" />
<glyph unicode="&#xa1;" horiz-adv-x="730" d="M183 982q0 79 49 124.5t133 45.5q85 0 133.5 -45.5t48.5 -124.5q0 -80 -48.5 -125.5t-133.5 -45.5q-84 0 -133 46t-49 125zM205 -322l26 969h267l27 -969h-320z" />
<glyph unicode="&#xa2;" d="M158 700q0 224 120.5 373t319.5 187v189h242v-185q171 -29 284 -137t129 -267h-272q-22 80 -89 127t-159 47q-122 0 -201.5 -90t-79.5 -244q0 -156 79.5 -247t200.5 -91q100 0 165 44t84 122h272q-16 -160 -127.5 -264.5t-285.5 -131.5v-184h-242v188q-200 39 -320 188.5 t-120 375.5z" />
<glyph unicode="&#xa3;" d="M141 0v240q134 19 218.5 109t84.5 215q0 35 -6 68h-293v213h224q-59 148 -59 243q0 186 146.5 289t411.5 103q90 0 184 -14.5t146 -35.5v-244q-49 22 -131 36.5t-161 14.5q-139 0 -216 -52t-77 -146q0 -72 44 -194h415v-213h-348q3 -24 3 -49q0 -100 -49.5 -185 t-126.5 -122v-19h714v-257h-1124z" />
<glyph unicode="&#xa4;" d="M168 275l148 149q-58 105 -58 224q0 121 58 224l-148 149l166 172l148 -150q104 62 226 62t225 -61l149 149l166 -172l-147 -149q58 -103 58 -224q0 -122 -59 -224l148 -149l-166 -172l-149 150q-103 -61 -225 -61t-225 61l-149 -150zM474 648q0 -95 69 -163.5t165 -68.5 t165.5 68.5t69.5 163.5t-69.5 164t-165.5 69t-165 -69t-69 -164z" />
<glyph unicode="&#xa5;" d="M54 1443h327l318 -604h18l317 604h327l-426 -766h195v-169h-271v-133h271v-169h-271v-206h-302v206h-271v169h271v133h-271v169h195z" />
<glyph unicode="&#xa6;" horiz-adv-x="793" d="M260 -310v732h273v-732h-273zM260 791v733h273v-733h-273z" />
<glyph unicode="&#xa7;" horiz-adv-x="1032" d="M68 536q0 94 57.5 165.5t157.5 102.5v18q-107 49 -156 114.5t-49 159.5q0 152 120 244.5t318 92.5q184 0 301.5 -90t128.5 -239h-251q-8 53 -58 86t-123 33q-76 0 -123.5 -35t-47.5 -91q0 -42 34 -70.5t113 -53.5l171 -60q160 -55 232 -125.5t72 -173.5 q0 -97 -63.5 -172.5t-167.5 -103.5v-19q116 -45 169.5 -108t53.5 -159q0 -151 -122 -244.5t-320 -93.5q-187 0 -308 92.5t-128 241.5h253q7 -55 59.5 -89.5t127.5 -34.5q77 0 125.5 35.5t48.5 91.5q0 42 -35 71.5t-114 52.5l-175 60q-158 51 -229.5 122.5t-71.5 178.5z M322 593q0 -47 37.5 -83.5t104.5 -55.5l109 -38q59 9 99 48.5t40 89.5q0 47 -37 83.5t-104 55.5l-109 38q-59 -9 -99.5 -49t-40.5 -89z" />
<glyph unicode="&#xa8;" horiz-adv-x="1176" d="M199 1419q0 66 43.5 108.5t111.5 42.5t111.5 -42.5t43.5 -108.5t-44 -109t-111 -43t-111 43t-44 109zM667 1419q0 66 44 108.5t111 42.5q68 0 112 -42.5t44 -108.5t-44 -109t-112 -43q-67 0 -111 43t-44 109z" />
<glyph unicode="&#xa9;" horiz-adv-x="1742" d="M83 652q0 162 61.5 308.5t167 251.5t251.5 167t308 62q163 0 309 -62t251.5 -167t167 -251.5t61.5 -308.5t-62 -308t-167 -251t-251.5 -167t-308.5 -62t-308 62t-251 167t-167 251t-62 308zM247 652q0 -128 49 -243t132 -198t198.5 -132t244.5 -49t245 48.5t199 132 t132 198.5t49 243q0 172 -82.5 315t-226.5 225.5t-316 82.5q-129 0 -244.5 -49t-198.5 -132t-132 -198.5t-49 -243.5zM505 654q0 182 103 288.5t278 106.5q146 0 242 -79t110 -211h-188q-11 58 -55 92t-107 34q-85 0 -133.5 -61.5t-48.5 -169.5q0 -110 48.5 -172t133.5 -62 q66 0 108.5 31.5t53.5 88.5h188q-14 -132 -108 -208t-243 -76q-177 0 -279.5 107t-102.5 291z" />
<glyph unicode="&#xaa;" horiz-adv-x="1031" d="M91 783q0 127 93 199t271 83l207 11v75q1 50 -37.5 78.5t-106.5 28.5q-59 0 -96 -21.5t-45 -60.5h-252q10 135 117.5 212t285.5 77q185 0 291 -85t106 -234v-631h-256v113h-18q-33 -61 -101.5 -96t-157.5 -35q-137 0 -219 78t-82 208zM354 799q0 -49 36.5 -77.5 t100.5 -28.5q75 0 124 44t49 111v70l-167 -12q-143 -9 -143 -107z" />
<glyph unicode="&#xab;" horiz-adv-x="1447" d="M158 562v8l349 411h271l-347 -409v-11l347 -410h-276zM669 562v8l349 411h271l-347 -409v-11l347 -410h-276z" />
<glyph unicode="&#xac;" d="M185 455v258h1045v-654h-255v396h-790z" />
<glyph unicode="&#xad;" horiz-adv-x="992" d="M168 446v273h657v-273h-657z" />
<glyph unicode="&#xae;" horiz-adv-x="1260" d="M100 969q0 145 71 267t193 193t266 71q145 0 267 -71t192.5 -193t70.5 -267t-70.5 -267t-192.5 -193t-267 -71q-144 0 -266 71t-193 193t-71 267zM233 969q0 -164 116 -279.5t281 -115.5q166 0 281.5 115.5t115.5 279.5q0 165 -115.5 280t-281.5 115q-165 0 -281 -115 t-116 -280zM421 733v487h256q80 0 130 -43t50 -113q0 -56 -27 -95t-76 -53l127 -183h-149l-111 165h-75v-165h-125zM546 995h99q78 0 78 60q0 61 -76 61h-101v-121z" />
<glyph unicode="&#xaf;" horiz-adv-x="1048" d="M157 1316v180h735v-180h-735z" />
<glyph unicode="&#xb0;" horiz-adv-x="924" d="M102 1102q0 152 103 256t257 104t257 -104t103 -256t-103 -256t-257 -104t-257 104t-103 256zM280 1102q0 -79 50.5 -131.5t131.5 -52.5t132 52.5t51 131.5t-51 131t-132 52t-131.5 -52t-50.5 -131z" />
<glyph unicode="&#xb1;" d="M208 71v225h997v-225h-997zM208 650v224h375v234h249v-234h375v-224h-375v-234h-249v234h-375z" />
<glyph unicode="&#xb2;" horiz-adv-x="914" d="M80 1525v5q0 145 102 232.5t271 87.5q163 0 260.5 -77t97.5 -206q0 -89 -54.5 -168t-184.5 -175l-114 -97v-18h368v-213h-727v189l277 239q107 89 141.5 132t34.5 86t-31 70.5t-80 27.5q-52 0 -84 -30t-32 -79v-6h-245z" />
<glyph unicode="&#xb3;" horiz-adv-x="950" d="M85 1189h246q2 -49 39.5 -77.5t97.5 -28.5q59 0 95 27.5t36 71.5q0 46 -34 71t-96 25h-115v177h113q53 0 84.5 25.5t31.5 68.5q0 40 -32.5 65.5t-85.5 25.5q-56 0 -90.5 -28t-37.5 -76h-243q1 142 103 226.5t273 84.5q162 0 261.5 -71t99.5 -186q0 -79 -48.5 -135.5 t-127.5 -69.5v-19q97 -8 153.5 -66t56.5 -147q0 -127 -109.5 -205.5t-285.5 -78.5q-175 0 -279.5 87t-105.5 233z" />
<glyph unicode="&#xb4;" horiz-adv-x="1098" d="M260 1281l247 353h309l-287 -353h-269z" />
<glyph unicode="&#xb5;" horiz-adv-x="1365" d="M146 -366v1469h291v-644q0 -230 201 -230q96 0 155.5 65t59.5 171v638h291v-760q0 -70 20 -96.5t69 -26.5q19 0 54 8v-221q-61 -18 -130 -18q-116 0 -178.5 43.5t-87.5 144.5l-3 14h-19q-44 -215 -244 -215q-122 0 -170 78h-18v-420h-291z" />
<glyph unicode="&#xb6;" horiz-adv-x="1580" d="M142 939q0 219 147 361.5t378 142.5h299v-1702h-280v702h-20q-224 0 -374 143t-150 353zM1135 -259v1702h280v-1702h-280z" />
<glyph unicode="&#xb7;" horiz-adv-x="723" d="M181 733q0 78 50 127.5t131 49.5t130.5 -49.5t49.5 -127.5q0 -77 -49.5 -127t-130.5 -50t-131 50t-50 127z" />
<glyph unicode="&#xb8;" horiz-adv-x="1098" d="M367 -338q42 -14 116 -14q112 0 112 59q0 30 -30.5 43t-99.5 13h-60v116l64 148h161v-27l-45 -108q95 -5 145.5 -50.5t50.5 -126.5q0 -97 -70 -151t-197 -54q-86 0 -147 18v134z" />
<glyph unicode="&#xb9;" horiz-adv-x="761" d="M87 1434v235q91 68 232 155h270v-928h-267v679h-18q-7 -4 -111.5 -72t-105.5 -69z" />
<glyph unicode="&#xba;" horiz-adv-x="1107" d="M95 980q0 223 123 352.5t335 129.5q214 0 336 -128.5t122 -353.5q0 -228 -121 -355.5t-337 -127.5q-215 0 -336.5 128t-121.5 355zM367 980q0 -129 48.5 -199.5t137.5 -70.5t137.5 70.5t48.5 199.5q0 128 -49 198.5t-137 70.5t-137 -71t-49 -198z" />
<glyph unicode="&#xbb;" horiz-adv-x="1447" d="M158 151l347 410v11l-347 409h271l349 -411v-8l-344 -411h-276zM669 151l347 410v11l-347 409h271l349 -411v-8l-344 -411h-276z" />
<glyph unicode="&#xbc;" horiz-adv-x="2242" d="M87 1053v235q91 68 232 155h270v-928h-267v679h-18q-7 -4 -111.5 -72t-105.5 -69zM569 0l394 749l305 694h274l-399 -742l-300 -701h-274zM1318 134v214q49 100 125.5 224.5t233.5 355.5h367v-588h110v-196h-119v-144h-236v134h-481zM1546 334h254v393h-14 q-191 -295 -240 -390v-3z" />
<glyph unicode="&#xbd;" horiz-adv-x="2243" d="M87 1053v235q91 68 232 155h270v-928h-267v679h-18q-7 -4 -111.5 -72t-105.5 -69zM569 0l394 749l305 694h274l-399 -742l-300 -701h-274zM1410 629v5q0 145 102 232.5t271 87.5q163 0 260.5 -77t97.5 -206q0 -89 -54.5 -168t-184.5 -175l-114 -97v-18h368v-213h-727v189 l277 239q107 89 141.5 132t34.5 86t-31 70.5t-80 27.5q-52 0 -84 -30t-32 -79v-6h-245z" />
<glyph unicode="&#xbe;" horiz-adv-x="2402" d="M85 808h246q2 -49 39.5 -77.5t97.5 -28.5q59 0 95 27.5t36 71.5q0 46 -34 71t-96 25h-115v177h113q53 0 84.5 25.5t31.5 68.5q0 40 -32.5 65.5t-85.5 25.5q-56 0 -90.5 -28t-37.5 -76h-243q1 142 103 226.5t273 84.5q162 0 261.5 -71t99.5 -186q0 -79 -48.5 -135.5 t-127.5 -69.5v-19q97 -8 153.5 -66t56.5 -147q0 -127 -109.5 -205.5t-285.5 -78.5q-175 0 -279.5 87t-105.5 233zM729 0l394 749l305 694h274l-399 -742l-300 -701h-274zM1478 134v214q49 100 125.5 224.5t233.5 355.5h367v-588h110v-196h-119v-144h-236v134h-481zM1706 334 h254v393h-14q-191 -295 -240 -390v-3z" />
<glyph unicode="&#xbf;" horiz-adv-x="1141" d="M103 56q0 110 53.5 191.5t160.5 145.5q100 59 135 104.5t35 117.5v53h264l2 -54q10 -119 -32 -194.5t-148 -137.5q-97 -58 -132.5 -103.5t-35.5 -113.5q0 -71 53 -115.5t138 -44.5t138 49.5t58 132.5h272q-4 -191 -132 -306.5t-353 -115.5q-214 0 -345 108t-131 283z M427 981q0 79 49 124.5t133 45.5q85 0 133.5 -45.5t48.5 -124.5t-48.5 -124.5t-133.5 -45.5q-84 0 -133 45.5t-49 124.5z" />
<glyph unicode="&#xc0;" horiz-adv-x="1500" d="M72 0l501 1443h355l501 -1443h-327l-109 344h-507l-111 -344h-303zM309 1908h315l276 -318h-277zM551 577h378l-179 566h-18z" />
<glyph unicode="&#xc1;" horiz-adv-x="1500" d="M72 0l501 1443h355l501 -1443h-327l-109 344h-507l-111 -344h-303zM551 577h378l-179 566h-18zM609 1590l277 318h315l-314 -318h-278z" />
<glyph unicode="&#xc2;" horiz-adv-x="1500" d="M72 0l501 1443h355l501 -1443h-327l-109 344h-507l-111 -344h-303zM330 1590l284 335h272l284 -335h-265l-146 187h-18l-146 -187h-265zM551 577h378l-179 566h-18z" />
<glyph unicode="&#xc3;" horiz-adv-x="1500" d="M72 0l501 1443h355l501 -1443h-327l-109 344h-507l-111 -344h-303zM343 1575q0 145 71.5 233t189.5 88q42 0 79 -15t62.5 -36t48 -42t45 -36t43.5 -15q87 0 88 138h187q0 -144 -71.5 -231t-189.5 -87q-42 0 -79 15t-62.5 36t-48 42t-45 36t-43.5 15q-86 0 -88 -141h-187z M551 577h378l-179 566h-18z" />
<glyph unicode="&#xc4;" horiz-adv-x="1500" d="M72 0l501 1443h355l501 -1443h-327l-109 344h-507l-111 -344h-303zM361 1731q0 66 43.5 108.5t111.5 42.5t111.5 -42.5t43.5 -108.5t-44 -109t-111 -43t-111 43t-44 109zM551 577h378l-179 566h-18zM829 1731q0 66 44 108.5t111 42.5q68 0 112 -42.5t44 -108.5t-44 -109 t-112 -43q-67 0 -111 43t-44 109z" />
<glyph unicode="&#xc5;" horiz-adv-x="1500" d="M72 0l501 1443h355l501 -1443h-327l-109 344h-507l-111 -344h-303zM545 1746q0 86 58.5 142.5t147.5 56.5q87 0 145.5 -56.5t58.5 -142.5q0 -87 -58.5 -143.5t-145.5 -56.5q-89 0 -147.5 56.5t-58.5 143.5zM551 577h378l-179 566h-18zM655 1745q0 -40 27 -66.5t68 -26.5 q42 0 68.5 26.5t26.5 66.5q0 41 -27 67.5t-68 26.5t-68 -26.5t-27 -67.5z" />
<glyph unicode="&#xc6;" horiz-adv-x="2059" d="M72 0l595 1443h1250v-258h-651v-341h614v-239h-614v-347h651v-258h-927v364h-465l-154 -364h-299zM612 598h378v604h-129z" />
<glyph unicode="&#xc7;" horiz-adv-x="1518" d="M111 722q0 352 181.5 555t495.5 203q256 0 432.5 -152.5t193.5 -388.5h-294q-22 125 -112.5 200t-219.5 75q-170 0 -269 -132t-99 -360t99 -360.5t270 -132.5q130 0 220 71t112 190h294q-17 -215 -166.5 -357.5t-379.5 -165.5l-31 -74q95 -5 145.5 -50.5t50.5 -126.5 q0 -97 -70 -151t-197 -54q-86 0 -147 18v134q42 -14 116 -14q112 0 112 59q0 30 -30.5 43t-99.5 13h-60v116l38 88q-274 30 -429.5 229.5t-155.5 524.5z" />
<glyph unicode="&#xc8;" horiz-adv-x="1274" d="M175 0v1443h956v-258h-654v-337h617v-239h-617v-351h654v-258h-956zM212 1908h315l276 -318h-277z" />
<glyph unicode="&#xc9;" horiz-adv-x="1274" d="M175 0v1443h956v-258h-654v-337h617v-239h-617v-351h654v-258h-956zM512 1590l277 318h315l-314 -318h-278z" />
<glyph unicode="&#xca;" horiz-adv-x="1274" d="M175 0v1443h956v-258h-654v-337h617v-239h-617v-351h654v-258h-956zM233 1590l284 335h272l284 -335h-265l-146 187h-18l-146 -187h-265z" />
<glyph unicode="&#xcb;" horiz-adv-x="1274" d="M175 0v1443h956v-258h-654v-337h617v-239h-617v-351h654v-258h-956zM264 1731q0 66 43.5 108.5t111.5 42.5t111.5 -42.5t43.5 -108.5t-44 -109t-111 -43t-111 43t-44 109zM732 1731q0 66 44 108.5t111 42.5q68 0 112 -42.5t44 -108.5t-44 -109t-112 -43q-67 0 -111 43 t-44 109z" />
<glyph unicode="&#xcc;" horiz-adv-x="652" d="M-115 1908h315l276 -318h-277zM175 0v1443h302v-1443h-302z" />
<glyph unicode="&#xcd;" horiz-adv-x="652" d="M175 0v1443h302v-1443h-302zM185 1590l277 318h315l-314 -318h-278z" />
<glyph unicode="&#xce;" horiz-adv-x="652" d="M-94 1590l284 335h272l284 -335h-265l-146 187h-18l-146 -187h-265zM175 0v1443h302v-1443h-302z" />
<glyph unicode="&#xcf;" horiz-adv-x="652" d="M-63 1731q0 66 43.5 108.5t111.5 42.5t111.5 -42.5t43.5 -108.5t-44 -109t-111 -43t-111 43t-44 109zM175 0v1443h302v-1443h-302zM405 1731q0 66 44 108.5t111 42.5q68 0 112 -42.5t44 -108.5t-44 -109t-112 -43q-67 0 -111 43t-44 109z" />
<glyph unicode="&#xd0;" horiz-adv-x="1530" d="M50 618v227h125v599h568q322 0 499.5 -186.5t177.5 -525.5q0 -351 -176.5 -541.5t-500.5 -190.5h-568v618h-125zM477 258h218q201 0 309 120.5t108 348.5q0 218 -110 338.5t-307 120.5h-218v-341h228v-227h-228v-360z" />
<glyph unicode="&#xd1;" horiz-adv-x="1573" d="M175 0v1443h252l664 -899h18v899h289v-1443h-250l-666 903h-18v-903h-289zM376 1575q0 145 71.5 233t189.5 88q42 0 79 -15t62.5 -36t48 -42t45 -36t43.5 -15q87 0 88 138h187q0 -144 -71.5 -231t-189.5 -87q-42 0 -79 15t-62.5 36t-48 42t-45 36t-43.5 15 q-86 0 -88 -141h-187z" />
<glyph unicode="&#xd2;" horiz-adv-x="1610" d="M111 722q0 350 188 554t507 204q320 0 506.5 -204t186.5 -554q0 -351 -186.5 -555t-506.5 -204q-321 0 -508 204t-187 555zM365 1908h315l276 -318h-277zM420 722q0 -226 104.5 -360t281.5 -134q176 0 280.5 134t104.5 360t-104.5 359.5t-280.5 133.5t-281 -133.5 t-105 -359.5z" />
<glyph unicode="&#xd3;" horiz-adv-x="1610" d="M111 722q0 350 188 554t507 204q320 0 506.5 -204t186.5 -554q0 -351 -186.5 -555t-506.5 -204q-321 0 -508 204t-187 555zM420 722q0 -226 104.5 -360t281.5 -134q176 0 280.5 134t104.5 360t-104.5 359.5t-280.5 133.5t-281 -133.5t-105 -359.5zM665 1590l277 318h315 l-314 -318h-278z" />
<glyph unicode="&#xd4;" horiz-adv-x="1610" d="M111 722q0 350 188 554t507 204q320 0 506.5 -204t186.5 -554q0 -351 -186.5 -555t-506.5 -204q-321 0 -508 204t-187 555zM386 1590l284 335h272l284 -335h-265l-146 187h-18l-146 -187h-265zM420 722q0 -226 104.5 -360t281.5 -134q176 0 280.5 134t104.5 360 t-104.5 359.5t-280.5 133.5t-281 -133.5t-105 -359.5z" />
<glyph unicode="&#xd5;" horiz-adv-x="1610" d="M111 722q0 350 188 554t507 204q320 0 506.5 -204t186.5 -554q0 -351 -186.5 -555t-506.5 -204q-321 0 -508 204t-187 555zM399 1575q0 145 71.5 233t189.5 88q42 0 79 -15t62.5 -36t48 -42t45 -36t43.5 -15q87 0 88 138h187q0 -144 -71.5 -231t-189.5 -87q-42 0 -79 15 t-62.5 36t-48 42t-45 36t-43.5 15q-86 0 -88 -141h-187zM420 722q0 -226 104.5 -360t281.5 -134q176 0 280.5 134t104.5 360t-104.5 359.5t-280.5 133.5t-281 -133.5t-105 -359.5z" />
<glyph unicode="&#xd6;" horiz-adv-x="1610" d="M111 722q0 350 188 554t507 204q320 0 506.5 -204t186.5 -554q0 -351 -186.5 -555t-506.5 -204q-321 0 -508 204t-187 555zM417 1731q0 66 43.5 108.5t111.5 42.5t111.5 -42.5t43.5 -108.5t-44 -109t-111 -43t-111 43t-44 109zM420 722q0 -226 104.5 -360t281.5 -134 q176 0 280.5 134t104.5 360t-104.5 359.5t-280.5 133.5t-281 -133.5t-105 -359.5zM885 1731q0 66 44 108.5t111 42.5q68 0 112 -42.5t44 -108.5t-44 -109t-112 -43q-67 0 -111 43t-44 109z" />
<glyph unicode="&#xd7;" d="M228 280l304 304l-304 305l175 182l305 -304l304 304l175 -182l-304 -305l304 -304l-175 -182l-304 304l-305 -304z" />
<glyph unicode="&#xd8;" horiz-adv-x="1592" d="M111 722q0 350 188 554t507 204q207 0 360 -88l76 115l108 -59l-84 -127q113 -98 173 -251t60 -348q0 -351 -186.5 -555t-506.5 -204q-217 0 -377 97l-85 -128l-102 66l90 135q-107 100 -164 249.5t-57 339.5zM420 722q0 -201 83 -330l506 763q-88 60 -203 60 q-176 0 -281 -133.5t-105 -359.5zM587 299q93 -71 219 -71q176 0 280.5 134t104.5 360q0 216 -94 345z" />
<glyph unicode="&#xd9;" horiz-adv-x="1565" d="M178 498v945h302v-914q0 -138 79.5 -218t222.5 -80q144 0 223.5 80t79.5 218v914h302v-945q0 -241 -164.5 -388t-440.5 -147q-275 0 -439.5 147t-164.5 388zM341 1908h315l276 -318h-277z" />
<glyph unicode="&#xda;" horiz-adv-x="1565" d="M178 498v945h302v-914q0 -138 79.5 -218t222.5 -80q144 0 223.5 80t79.5 218v914h302v-945q0 -241 -164.5 -388t-440.5 -147q-275 0 -439.5 147t-164.5 388zM641 1590l277 318h315l-314 -318h-278z" />
<glyph unicode="&#xdb;" horiz-adv-x="1565" d="M178 498v945h302v-914q0 -138 79.5 -218t222.5 -80q144 0 223.5 80t79.5 218v914h302v-945q0 -241 -164.5 -388t-440.5 -147q-275 0 -439.5 147t-164.5 388zM362 1590l284 335h272l284 -335h-265l-146 187h-18l-146 -187h-265z" />
<glyph unicode="&#xdc;" horiz-adv-x="1565" d="M178 498v945h302v-914q0 -138 79.5 -218t222.5 -80q144 0 223.5 80t79.5 218v914h302v-945q0 -241 -164.5 -388t-440.5 -147q-275 0 -439.5 147t-164.5 388zM393 1731q0 66 43.5 108.5t111.5 42.5t111.5 -42.5t43.5 -108.5t-44 -109t-111 -43t-111 43t-44 109zM861 1731 q0 66 44 108.5t111 42.5q68 0 112 -42.5t44 -108.5t-44 -109t-112 -43q-67 0 -111 43t-44 109z" />
<glyph unicode="&#xdd;" horiz-adv-x="1452" d="M72 1443h327l318 -604h18l317 604h327l-502 -912v-531h-302v531zM585 1590l277 318h315l-314 -318h-278z" />
<glyph unicode="&#xde;" horiz-adv-x="1378" d="M175 0v1443h304v-232h307q209 0 342 -125t133 -337q0 -211 -138 -336t-352 -125h-294v-288h-302zM477 533h226q117 0 184 55.5t67 160.5q0 104 -66.5 159t-183.5 55h-227v-430z" />
<glyph unicode="&#xdf;" horiz-adv-x="1402" d="M192 0v1079q0 186 135.5 294t364.5 108q219 0 356.5 -105t137.5 -272q0 -119 -60.5 -207t-157.5 -115v-19q151 -10 243 -107.5t92 -254.5q0 -187 -132 -301.5t-353 -114.5q-114 0 -181 16v241q54 -18 129 -18q115 0 178 52.5t63 142.5q0 91 -72.5 143.5t-201.5 52.5h-72 v245h49q88 0 140.5 51t52.5 141q0 83 -55.5 134t-150.5 51q-104 0 -159.5 -56.5t-55.5 -163.5v-1017h-290z" />
<glyph unicode="&#xe0;" horiz-adv-x="1208" d="M87 315q0 149 110.5 234.5t316.5 97.5l267 16v90q0 69 -48 106.5t-138 37.5q-162 0 -199 -102h-268q14 153 144.5 242.5t338.5 89.5q218 0 337.5 -98t119.5 -276v-753h-282v144h-18q-43 -76 -128 -118.5t-192 -42.5q-160 0 -260.5 91t-100.5 241zM214 1634h309l247 -353 h-269zM372 334q0 -61 47.5 -96.5t124.5 -35.5q101 0 169 57t68 141v81l-223 -14q-186 -13 -186 -133z" />
<glyph unicode="&#xe1;" horiz-adv-x="1208" d="M87 315q0 149 110.5 234.5t316.5 97.5l267 16v90q0 69 -48 106.5t-138 37.5q-162 0 -199 -102h-268q14 153 144.5 242.5t338.5 89.5q218 0 337.5 -98t119.5 -276v-753h-282v144h-18q-43 -76 -128 -118.5t-192 -42.5q-160 0 -260.5 91t-100.5 241zM372 334 q0 -61 47.5 -96.5t124.5 -35.5q101 0 169 57t68 141v81l-223 -14q-186 -13 -186 -133zM456 1281l247 353h309l-287 -353h-269z" />
<glyph unicode="&#xe2;" horiz-adv-x="1208" d="M87 315q0 149 110.5 234.5t316.5 97.5l267 16v90q0 69 -48 106.5t-138 37.5q-162 0 -199 -102h-268q14 153 144.5 242.5t338.5 89.5q218 0 337.5 -98t119.5 -276v-753h-282v144h-18q-43 -76 -128 -118.5t-192 -42.5q-160 0 -260.5 91t-100.5 241zM190 1251l275 354h291 l275 -354h-263l-148 209h-18l-149 -209h-263zM372 334q0 -61 47.5 -96.5t124.5 -35.5q101 0 169 57t68 141v81l-223 -14q-186 -13 -186 -133z" />
<glyph unicode="&#xe3;" horiz-adv-x="1208" d="M87 315q0 149 110.5 234.5t316.5 97.5l267 16v90q0 69 -48 106.5t-138 37.5q-162 0 -199 -102h-268q14 153 144.5 242.5t338.5 89.5q218 0 337.5 -98t119.5 -276v-753h-282v144h-18q-43 -76 -128 -118.5t-192 -42.5q-160 0 -260.5 91t-100.5 241zM209 1256 q0 145 71.5 233t189.5 88q42 0 79 -15t62.5 -36t48 -42t45 -36t43.5 -15q87 0 88 138h187q0 -144 -71.5 -231t-189.5 -87q-42 0 -79 15t-62.5 36t-48 42t-45 36t-43.5 15q-86 0 -88 -141h-187zM372 334q0 -61 47.5 -96.5t124.5 -35.5q101 0 169 57t68 141v81l-223 -14 q-186 -13 -186 -133z" />
<glyph unicode="&#xe4;" horiz-adv-x="1208" d="M87 315q0 149 110.5 234.5t316.5 97.5l267 16v90q0 69 -48 106.5t-138 37.5q-162 0 -199 -102h-268q14 153 144.5 242.5t338.5 89.5q218 0 337.5 -98t119.5 -276v-753h-282v144h-18q-43 -76 -128 -118.5t-192 -42.5q-160 0 -260.5 91t-100.5 241zM222 1403 q0 66 43.5 108.5t111.5 42.5t111.5 -42.5t43.5 -108.5t-44 -109t-111 -43t-111 43t-44 109zM372 334q0 -61 47.5 -96.5t124.5 -35.5q101 0 169 57t68 141v81l-223 -14q-186 -13 -186 -133zM690 1403q0 66 44 108.5t111 42.5q68 0 112 -42.5t44 -108.5t-44 -109t-112 -43 q-67 0 -111 43t-44 109z" />
<glyph unicode="&#xe5;" horiz-adv-x="1208" d="M87 315q0 149 110.5 234.5t316.5 97.5l267 16v90q0 69 -48 106.5t-138 37.5q-162 0 -199 -102h-268q14 153 144.5 242.5t338.5 89.5q218 0 337.5 -98t119.5 -276v-753h-282v144h-18q-43 -76 -128 -118.5t-192 -42.5q-160 0 -260.5 91t-100.5 241zM365 1492 q0 102 70.5 170t175.5 68t175 -67.5t70 -170.5q0 -104 -70 -172.5t-175 -68.5t-175.5 68.5t-70.5 172.5zM372 334q0 -61 47.5 -96.5t124.5 -35.5q101 0 169 57t68 141v81l-223 -14q-186 -13 -186 -133zM505 1491q0 -46 30 -75t76 -29t75.5 29.5t29.5 74.5q0 44 -30 73.5 t-75 29.5q-46 0 -76 -29.5t-30 -73.5z" />
<glyph unicode="&#xe6;" horiz-adv-x="1894" d="M87 315q0 149 110.5 234.5t316.5 97.5l267 16v73q0 80 -49.5 120.5t-136.5 40.5q-162 0 -199 -102h-268q13 146 139 239t313 93q251 0 357 -158h18q58 72 151.5 115t204.5 43q228 0 360 -148t132 -401v-94h-747v-26q4 -117 74 -187.5t182 -70.5q155 0 212 114h269 q-33 -156 -161 -247t-317 -91q-130 0 -235 53.5t-156 144.5h-18q-64 -93 -169.5 -145.5t-237.5 -52.5q-187 0 -299.5 94t-112.5 245zM372 332q0 -62 48.5 -97.5t128.5 -35.5q103 0 167.5 58t64.5 140v84l-223 -14q-186 -13 -186 -135zM1056 669h462q-4 105 -66.5 170 t-158.5 65q-102 0 -166.5 -64.5t-70.5 -170.5z" />
<glyph unicode="&#xe7;" horiz-adv-x="1203" d="M92 554q0 275 140 424t399 149q216 0 344.5 -111t146.5 -302h-272q-15 81 -71.5 127.5t-147.5 46.5q-118 0 -181.5 -86t-63.5 -248q0 -164 63.5 -251.5t181.5 -87.5q90 0 146.5 43t72.5 124h272q-16 -167 -122 -273t-282 -128l-37 -88q95 -5 145.5 -50.5t50.5 -126.5 q0 -97 -70 -151t-197 -54q-86 0 -147 18v134q42 -14 116 -14q112 0 112 59q0 30 -30.5 43t-99.5 13h-60v116l44 101q-218 24 -335.5 172t-117.5 401z" />
<glyph unicode="&#xe8;" horiz-adv-x="1231" d="M92 546q0 269 142 425t388 156q244 0 380.5 -147t136.5 -410v-89h-757v-15q3 -123 70.5 -194.5t181.5 -71.5q86 0 144 29.5t81 84.5h271q-33 -157 -167.5 -247.5t-336.5 -90.5q-252 0 -393 150.5t-141 419.5zM225 1634h309l247 -353h-269zM383 667h470 q-5 110 -66.5 173.5t-163.5 63.5q-101 0 -166.5 -65t-73.5 -172z" />
<glyph unicode="&#xe9;" horiz-adv-x="1231" d="M92 546q0 269 142 425t388 156q244 0 380.5 -147t136.5 -410v-89h-757v-15q3 -123 70.5 -194.5t181.5 -71.5q86 0 144 29.5t81 84.5h271q-33 -157 -167.5 -247.5t-336.5 -90.5q-252 0 -393 150.5t-141 419.5zM383 667h470q-5 110 -66.5 173.5t-163.5 63.5 q-101 0 -166.5 -65t-73.5 -172zM467 1281l247 353h309l-287 -353h-269z" />
<glyph unicode="&#xea;" horiz-adv-x="1231" d="M92 546q0 269 142 425t388 156q244 0 380.5 -147t136.5 -410v-89h-757v-15q3 -123 70.5 -194.5t181.5 -71.5q86 0 144 29.5t81 84.5h271q-33 -157 -167.5 -247.5t-336.5 -90.5q-252 0 -393 150.5t-141 419.5zM201 1251l275 354h291l275 -354h-263l-148 209h-18l-149 -209 h-263zM383 667h470q-5 110 -66.5 173.5t-163.5 63.5q-101 0 -166.5 -65t-73.5 -172z" />
<glyph unicode="&#xeb;" horiz-adv-x="1231" d="M92 546q0 269 142 425t388 156q244 0 380.5 -147t136.5 -410v-89h-757v-15q3 -123 70.5 -194.5t181.5 -71.5q86 0 144 29.5t81 84.5h271q-33 -157 -167.5 -247.5t-336.5 -90.5q-252 0 -393 150.5t-141 419.5zM233 1403q0 66 43.5 108.5t111.5 42.5t111.5 -42.5 t43.5 -108.5t-44 -109t-111 -43t-111 43t-44 109zM383 667h470q-5 110 -66.5 173.5t-163.5 63.5q-101 0 -166.5 -65t-73.5 -172zM701 1403q0 66 44 108.5t111 42.5q68 0 112 -42.5t44 -108.5t-44 -109t-112 -43q-67 0 -111 43t-44 109z" />
<glyph unicode="&#xec;" horiz-adv-x="587" d="M-103 1634h309l247 -353h-269zM148 0v1103h291v-1103h-291z" />
<glyph unicode="&#xed;" horiz-adv-x="587" d="M139 1281l247 353h309l-287 -353h-269zM148 0v1103h291v-1103h-291z" />
<glyph unicode="&#xee;" horiz-adv-x="587" d="M-127 1251l275 354h291l275 -354h-263l-148 209h-18l-149 -209h-263zM148 0v1103h291v-1103h-291z" />
<glyph unicode="&#xef;" horiz-adv-x="587" d="M-95 1403q0 66 43.5 108.5t111.5 42.5t111.5 -42.5t43.5 -108.5t-44 -109t-111 -43t-111 43t-44 109zM148 0v1103h291v-1103h-291zM373 1403q0 66 44 108.5t111 42.5q68 0 112 -42.5t44 -108.5t-44 -109t-112 -43q-67 0 -111 43t-44 109z" />
<glyph unicode="&#xf0;" horiz-adv-x="1277" d="M97 536q0 230 127 373.5t331 143.5q90 0 166.5 -34t116.5 -91h17q-20 65 -65.5 140.5t-105.5 140.5l-285 -95l-55 143l228 76q-78 69 -242 183h363q61 -45 119 -100l265 89l57 -143l-205 -68q124 -146 188.5 -322.5t64.5 -367.5q0 -283 -148 -452t-396 -169 q-245 0 -393 151t-148 402zM396 534q0 -142 67 -225t182 -83q116 0 183 83t67 225q0 141 -68 225t-182 84q-115 0 -182 -83.5t-67 -225.5z" />
<glyph unicode="&#xf1;" horiz-adv-x="1285" d="M146 0v1103h282v-177h18q39 95 122.5 148t203.5 53q183 0 280 -107.5t97 -306.5v-713h-291v644q0 232 -203 232q-101 0 -159.5 -65.5t-58.5 -174.5v-636h-291zM253 1256q0 145 71.5 233t189.5 88q42 0 79 -15t62.5 -36t48 -42t45 -36t43.5 -15q87 0 88 138h187 q0 -144 -71.5 -231t-189.5 -87q-42 0 -79 15t-62.5 36t-48 42t-45 36t-43.5 15q-86 0 -88 -141h-187z" />
<glyph unicode="&#xf2;" horiz-adv-x="1269" d="M92 552q0 268 145.5 421.5t397.5 153.5t397.5 -153.5t145.5 -421.5q0 -270 -144.5 -423t-398.5 -153t-398.5 153t-144.5 423zM238 1634h309l247 -353h-269zM391 552q0 -161 63.5 -249.5t180.5 -88.5q116 0 180 88.5t64 249.5q0 159 -64.5 248t-179.5 89q-116 0 -180 -89 t-64 -248z" />
<glyph unicode="&#xf3;" horiz-adv-x="1269" d="M92 552q0 268 145.5 421.5t397.5 153.5t397.5 -153.5t145.5 -421.5q0 -270 -144.5 -423t-398.5 -153t-398.5 153t-144.5 423zM391 552q0 -161 63.5 -249.5t180.5 -88.5q116 0 180 88.5t64 249.5q0 159 -64.5 248t-179.5 89q-116 0 -180 -89t-64 -248zM480 1281l247 353 h309l-287 -353h-269z" />
<glyph unicode="&#xf4;" horiz-adv-x="1269" d="M92 552q0 268 145.5 421.5t397.5 153.5t397.5 -153.5t145.5 -421.5q0 -270 -144.5 -423t-398.5 -153t-398.5 153t-144.5 423zM214 1251l275 354h291l275 -354h-263l-148 209h-18l-149 -209h-263zM391 552q0 -161 63.5 -249.5t180.5 -88.5q116 0 180 88.5t64 249.5 q0 159 -64.5 248t-179.5 89q-116 0 -180 -89t-64 -248z" />
<glyph unicode="&#xf5;" horiz-adv-x="1269" d="M92 552q0 268 145.5 421.5t397.5 153.5t397.5 -153.5t145.5 -421.5q0 -270 -144.5 -423t-398.5 -153t-398.5 153t-144.5 423zM233 1256q0 145 71.5 233t189.5 88q42 0 79 -15t62.5 -36t48 -42t45 -36t43.5 -15q87 0 88 138h187q0 -144 -71.5 -231t-189.5 -87 q-42 0 -79 15t-62.5 36t-48 42t-45 36t-43.5 15q-86 0 -88 -141h-187zM391 552q0 -161 63.5 -249.5t180.5 -88.5q116 0 180 88.5t64 249.5q0 159 -64.5 248t-179.5 89q-116 0 -180 -89t-64 -248z" />
<glyph unicode="&#xf6;" horiz-adv-x="1269" d="M92 552q0 268 145.5 421.5t397.5 153.5t397.5 -153.5t145.5 -421.5q0 -270 -144.5 -423t-398.5 -153t-398.5 153t-144.5 423zM246 1403q0 66 43.5 108.5t111.5 42.5t111.5 -42.5t43.5 -108.5t-44 -109t-111 -43t-111 43t-44 109zM391 552q0 -161 63.5 -249.5t180.5 -88.5 q116 0 180 88.5t64 249.5q0 159 -64.5 248t-179.5 89q-116 0 -180 -89t-64 -248zM714 1403q0 66 44 108.5t111 42.5q68 0 112 -42.5t44 -108.5t-44 -109t-112 -43q-67 0 -111 43t-44 109z" />
<glyph unicode="&#xf7;" d="M168 472v225h1080v-225h-1080zM541 192q0 72 46.5 117t120.5 45t120.5 -45t46.5 -117t-46.5 -117t-120.5 -45t-120.5 45t-46.5 117zM541 977q0 72 46.5 116.5t120.5 44.5t120.5 -44.5t46.5 -116.5t-46.5 -117t-120.5 -45t-120.5 45t-46.5 117z" />
<glyph unicode="&#xf8;" horiz-adv-x="1269" d="M92 552q0 268 145.5 421.5t397.5 153.5q147 0 262 -55l62 100l106 -58l-67 -107q180 -155 180 -455q0 -270 -144.5 -423t-398.5 -153q-139 0 -249 48l-61 -97l-103 63l60 96q-190 153 -190 466zM391 552q0 -136 45 -219l324 520q-52 36 -125 36q-116 0 -180 -89t-64 -248 zM521 242q49 -28 114 -28q116 0 180 88.5t64 249.5q0 121 -38 203z" />
<glyph unicode="&#xf9;" horiz-adv-x="1290" d="M136 384v719h291v-644q0 -230 203 -230q107 0 165 63t58 175v636h291v-1103h-282v177h-18q-82 -201 -322 -201q-179 0 -282.5 108.5t-103.5 299.5zM243 1634h309l247 -353h-269z" />
<glyph unicode="&#xfa;" horiz-adv-x="1290" d="M136 384v719h291v-644q0 -230 203 -230q107 0 165 63t58 175v636h291v-1103h-282v177h-18q-82 -201 -322 -201q-179 0 -282.5 108.5t-103.5 299.5zM485 1281l247 353h309l-287 -353h-269z" />
<glyph unicode="&#xfb;" horiz-adv-x="1290" d="M136 384v719h291v-644q0 -230 203 -230q107 0 165 63t58 175v636h291v-1103h-282v177h-18q-82 -201 -322 -201q-179 0 -282.5 108.5t-103.5 299.5zM219 1251l275 354h291l275 -354h-263l-148 209h-18l-149 -209h-263z" />
<glyph unicode="&#xfc;" horiz-adv-x="1290" d="M136 384v719h291v-644q0 -230 203 -230q107 0 165 63t58 175v636h291v-1103h-282v177h-18q-82 -201 -322 -201q-179 0 -282.5 108.5t-103.5 299.5zM251 1403q0 66 43.5 108.5t111.5 42.5t111.5 -42.5t43.5 -108.5t-44 -109t-111 -43t-111 43t-44 109zM719 1403 q0 66 44 108.5t111 42.5q68 0 112 -42.5t44 -108.5t-44 -109t-112 -43q-67 0 -111 43t-44 109z" />
<glyph unicode="&#xfd;" horiz-adv-x="1223" d="M56 1103h321l232 -836h18l232 836h308l-380 -1120q-70 -212 -183.5 -298t-320.5 -86q-93 0 -111 3v234q10 -2 66 -2q83 0 130 28.5t65 90.5l10 40zM461 1281l247 353h309l-287 -353h-269z" />
<glyph unicode="&#xfe;" horiz-adv-x="1339" d="M151 -345v1852h287v-585h18q45 93 133 146t201 53q210 0 329 -151t119 -418q0 -266 -119 -417.5t-326 -151.5q-118 0 -205 49t-128 137h-18v-514h-291zM439 551q0 -151 67 -238t183 -87q118 0 184 86.5t66 239.5q0 152 -66.5 238.5t-182.5 86.5t-183.5 -87.5 t-67.5 -238.5z" />
<glyph unicode="&#xff;" horiz-adv-x="1223" d="M56 1103h321l232 -836h18l232 836h308l-380 -1120q-70 -212 -183.5 -298t-320.5 -86q-93 0 -111 3v234q10 -2 66 -2q83 0 130 28.5t65 90.5l10 40zM227 1403q0 66 43.5 108.5t111.5 42.5t111.5 -42.5t43.5 -108.5t-44 -109t-111 -43t-111 43t-44 109zM695 1403 q0 66 44 108.5t111 42.5q68 0 112 -42.5t44 -108.5t-44 -109t-112 -43q-67 0 -111 43t-44 109z" />
<glyph unicode="&#x152;" horiz-adv-x="2271" d="M121 722q0 357 172.5 557.5t477.5 200.5q152 0 282.5 -73.5t182.5 -188.5h18v225h916v-258h-663v-337h626v-239h-626v-351h663v-258h-916v232h-18q-55 -121 -183 -195t-282 -74q-305 0 -477.5 201t-172.5 558zM430 722q0 -227 105.5 -360.5t285.5 -133.5q175 0 278 133.5 t103 360.5t-103 360t-278 133q-179 0 -285 -133.5t-106 -359.5z" />
<glyph unicode="&#x153;" horiz-adv-x="2017" d="M97 550q0 269 141.5 423t388.5 154q129 0 229.5 -49t160.5 -141h18q58 90 160 140t231 50q228 0 364.5 -151t136.5 -406v-88h-757v-16q3 -123 71 -194.5t181 -71.5q177 0 225 114h269q-33 -156 -165.5 -247t-323.5 -91q-128 0 -232.5 49.5t-160.5 136.5h-18 q-55 -87 -157.5 -136.5t-232.5 -49.5q-245 0 -387 154t-142 420zM396 551q0 -161 64 -249t180 -88t180 88t64 249q0 160 -64.5 249t-179.5 89t-179.5 -89t-64.5 -249zM1171 667h470q-5 110 -66.5 173.5t-163.5 63.5q-101 0 -167 -64.5t-73 -172.5z" />
<glyph unicode="&#x178;" horiz-adv-x="1452" d="M72 1443h327l318 -604h18l317 604h327l-502 -912v-531h-302v531zM337 1731q0 66 43.5 108.5t111.5 42.5t111.5 -42.5t43.5 -108.5t-44 -109t-111 -43t-111 43t-44 109zM805 1731q0 66 44 108.5t111 42.5q68 0 112 -42.5t44 -108.5t-44 -109t-112 -43q-67 0 -111 43 t-44 109z" />
<glyph unicode="&#x2c6;" horiz-adv-x="1099" d="M129 1251l275 354h291l275 -354h-263l-148 209h-18l-149 -209h-263z" />
<glyph unicode="&#x2dc;" horiz-adv-x="1098" d="M142 1270q0 145 71.5 233t189.5 88q42 0 79 -15t62.5 -36t48 -42t45 -36t43.5 -15q87 0 88 138h187q0 -144 -71.5 -231t-189.5 -87q-42 0 -79 15t-62.5 36t-48 42t-45 36t-43.5 15q-86 0 -88 -141h-187z" />
<glyph unicode="&#x2000;" horiz-adv-x="972" />
<glyph unicode="&#x2001;" horiz-adv-x="1945" />
<glyph unicode="&#x2002;" horiz-adv-x="972" />
<glyph unicode="&#x2003;" horiz-adv-x="1945" />
<glyph unicode="&#x2004;" horiz-adv-x="648" />
<glyph unicode="&#x2005;" horiz-adv-x="486" />
<glyph unicode="&#x2006;" horiz-adv-x="324" />
<glyph unicode="&#x2007;" horiz-adv-x="324" />
<glyph unicode="&#x2008;" horiz-adv-x="243" />
<glyph unicode="&#x2009;" horiz-adv-x="389" />
<glyph unicode="&#x200a;" horiz-adv-x="108" />
<glyph unicode="&#x2010;" horiz-adv-x="992" d="M168 446v273h657v-273h-657z" />
<glyph unicode="&#x2011;" horiz-adv-x="992" d="M168 446v273h657v-273h-657z" />
<glyph unicode="&#x2012;" horiz-adv-x="992" d="M168 446v273h657v-273h-657z" />
<glyph unicode="&#x2013;" horiz-adv-x="1024" d="M0 446v273h1024v-273h-1024z" />
<glyph unicode="&#x2014;" horiz-adv-x="2048" d="M0 446v273h2048v-273h-2048z" />
<glyph unicode="&#x2018;" horiz-adv-x="651" d="M121 832l195 611h202l-109 -611h-288z" />
<glyph unicode="&#x2019;" horiz-adv-x="651" d="M153 832l94 611h288l-180 -611h-202z" />
<glyph unicode="&#x201a;" horiz-adv-x="651" d="M147 -391l96 625h286l-178 -625h-204z" />
<glyph unicode="&#x201c;" horiz-adv-x="1130" d="M120 817l188 626h214l-116 -626h-286zM594 817l173 626h214l-101 -626h-286z" />
<glyph unicode="&#x201d;" horiz-adv-x="1130" d="M149 817l102 626h285l-172 -626h-215zM608 817l117 626h285l-187 -626h-215z" />
<glyph unicode="&#x201e;" horiz-adv-x="1130" d="M149 -391l97 625h285l-177 -625h-205zM608 -391l112 625h285l-192 -625h-205z" />
<glyph unicode="&#x2022;" horiz-adv-x="1032" d="M160 572q0 150 104 256t252 106t252.5 -106t104.5 -256q0 -149 -104.5 -255.5t-252.5 -106.5t-252 106.5t-104 255.5z" />
<glyph unicode="&#x2026;" horiz-adv-x="1845" d="M179 147q0 76 48.5 124.5t128.5 48.5t128.5 -48t48.5 -125t-48.5 -125.5t-128.5 -48.5t-128.5 48.5t-48.5 125.5zM746 147q0 76 48.5 124.5t128.5 48.5t128.5 -48t48.5 -125t-48.5 -125.5t-128.5 -48.5q-79 0 -128 48.5t-49 125.5zM1307 147q0 76 48.5 124.5t128.5 48.5 t128.5 -48t48.5 -125t-48.5 -125.5t-128.5 -48.5t-128.5 48.5t-48.5 125.5z" />
<glyph unicode="&#x202f;" horiz-adv-x="389" />
<glyph unicode="&#x2039;" horiz-adv-x="936" d="M158 562v8l349 411h271l-347 -409v-11l347 -410h-276z" />
<glyph unicode="&#x203a;" horiz-adv-x="936" d="M158 151l347 410v11l-347 409h271l349 -411v-8l-344 -411h-276z" />
<glyph unicode="&#x205f;" horiz-adv-x="486" />
<glyph unicode="&#x20ac;" d="M118 487v160h161q-3 36 -3 75q0 23 2 67h-160v161h185q64 248 262.5 384t490.5 136q125 0 204 -23v-257q-82 18 -198 18q-155 0 -270 -66.5t-169 -191.5h531v-161h-572q-3 -33 -3 -67q0 -43 4 -75h571v-160h-529q55 -122 167.5 -187t264.5 -65q145 0 207 15v-260 q-75 -17 -207 -17q-290 0 -488 134.5t-264 379.5h-187z" />
<glyph unicode="&#x2122;" horiz-adv-x="2067" d="M48 1234v209h783v-209h-271v-691h-242v691h-270zM980 543v900h287l184 -491h12l183 491h287v-900h-224v532h-11l-169 -444h-144l-169 444h-11v-532h-225z" />
<glyph unicode="&#x25fc;" horiz-adv-x="1105" d="M0 0v1105h1105v-1105h-1105z" />
<glyph unicode="&#xfb01;" horiz-adv-x="1423" d="M53 863v229h178v112q0 167 90.5 248.5t287.5 81.5q84 0 150 -11v-206q-48 5 -87 5q-84 0 -120 -33.5t-36 -105.5v-91h234v-229h-228v-863h-291v863h-178zM958 1404q0 66 47 106.5t125 40.5t125 -40.5t47 -106.5q0 -65 -47.5 -106t-124.5 -41q-78 0 -125 41t-47 106z M984 0v1103h291v-1103h-291z" />
<glyph unicode="&#xfb02;" horiz-adv-x="1439" d="M53 863v229h178v112q0 167 90.5 248.5t287.5 81.5q84 0 150 -11v-206q-48 5 -87 5q-84 0 -120 -33.5t-36 -105.5v-91h234v-229h-228v-863h-291v863h-178zM992 0v1524h291v-1524h-291z" />
</font>
</defs>
</svg>
